IPB

Bienvenue invité ( Connexion | Inscription )

 
Reply to this topicStart new topic
> Taille fichier MP3 mono / stéréo, même taille en MP3 stéréo et mP3 mono?
Options
papag4
posté 17 Sep 2019, 12:53
Message #1


Macbidouilleur de vermeil !
****

Groupe : Membres
Messages : 912
Inscrit : 25 Sep 2003
Lieu : Région Parisienne
Membre no 9 858



Bonjour,

je suis en train de convertir des fichiers de conférences en MP3.
Après le traitement sur Logic je fais un bounce en MP3.

Du coup, les conférences étant en mono, je passe la sortie principale en mono puis je bounce en MP3 en espérant gagner en taille de fichiers.

Et là, surprise le même extrait de 15mn converti en MP3 fait la même taille ( env 14,5 Mo ) que ce soit en stéréo ou mono ?

bref j'ai essayé plusieurs manips: bounce en PCM d'abord:

j'obtiens bien un fichier Wave de 158Mo en stéréo, ou 79Mo en mono, ou 2 fichiers de 79Mo si je choisis en stéréo séparé ( L et R).

Mais que je bounce en MP3 le fichier stéréo de 158Mo ou le fichier mono de 79Mo j'obtiens un fichier (1 canal) de 14,5 Mo ou un fichier (de 2 canaux) toujours de 14,5Mo....
J'ai essayé la conversion avec Audacity pour le même résultat.

je pensais que le MP3 mono aurait été divisé par 2 ?

Quelqu'un a t'il une explication ?

merci

ronan huh.gif


--------------------
MacPro 2012 2x2,4-6 cores avec 32Go de RAM et 4DD: 500Go+3X 1To, en X.11.6 et MacBook Pro 13p fin2011
Go to the top of the page
 
+Quote Post
Ducace
posté 18 Sep 2019, 09:32
Message #2


Macbidouilleur d'Or !
*****

Groupe : Membres
Messages : 2 463
Inscrit : 14 Dec 2005
Lieu : Bruxelles
Membre no 51 677



Je crois que sur un mp3 mono, il reste deux canaux identiques, gauche et droit.
Donc ça ne change pas le poids.
C'est comme sur une vidéo de smartphone ou d'APN, le son entre en mono (il n'y a qu'un micro) mais pourrait entrer en stéréo si on branche un micro stéréo sur l'entrée son.
Au final il y a deux canaux, différents en enregistrement stéréo et identiques en enregistrement mono

Ce message a été modifié par Ducace - 18 Sep 2019, 09:33.


--------------------
Sur Mac depuis qu'il y a des Macs.
Go to the top of the page
 
+Quote Post
papag4
posté 20 Sep 2019, 09:33
Message #3


Macbidouilleur de vermeil !
****

Groupe : Membres
Messages : 912
Inscrit : 25 Sep 2003
Lieu : Région Parisienne
Membre no 9 858



Citation (papag4 @ 17 Sep 2019, 13:53) *
Bonjour,

Mais que je bounce en MP3 le fichier stéréo de 158Mo ou le fichier mono de 79Mo j'obtiens un fichier (1 canal) de 14,5 Mo ou un fichier (de 2 canaux) toujours de 14,5Mo....
J'ai essayé la conversion avec Audacity pour le même résultat.

ronan huh.gif


mais quand tu fais "infos" sur le fichier tu obtiens "canaux audio:1 " pour le mono et "canaux audio:2" pour le stéréo...

d'où mon interrogation ?

merci pour la réponse...

ronan


--------------------
MacPro 2012 2x2,4-6 cores avec 32Go de RAM et 4DD: 500Go+3X 1To, en X.11.6 et MacBook Pro 13p fin2011
Go to the top of the page
 
+Quote Post
audionuma
posté 20 Sep 2019, 13:22
Message #4


Macbidouilleur d'Or !
*****

Groupe : Membres
Messages : 1 961
Inscrit : 27 Apr 2004
Membre no 18 176



Bonjour,
je ne reproduis pas ton problème chez moi (avec un workflow légèrement différent) :

- fichier monfichier.wav, environ 3 minutes, stéréo 16 bits 44100 Hz : taille environ 32 Mo

Je convertis le fichier en mono avec audacity (Pistes > Mix > Mix stéréo vers mono) et j'exporte.

- fichier monfichiermono.wav, environ 3 minutes, mono 16 bits 44100 Hz : taille environ 16 Mo

Je convertis en mp3 avec ffmpeg, réglages par défaut :

Code
$ ffmpeg -i monfichier.wav monfichier.mp3
$ ffmpeg -i monfichiermono.wav monfichiermono.mp3


Et j'observe le résultat :

Code
$mediainfo monfichier.mp3
General
Complete name                            : monfichier.mp3
Format                                   : MPEG Audio
File size                                : 2.89 MiB
Overall bit rate mode                    : Variable
Writing library                          : LAME3.100

Audio
Format                                   : MPEG Audio
Format version                           : Version 1
Format profile                           : Layer 3
Format settings                          : Joint stereo / MS Stereo
Bit rate mode                            : Variable
Channel(s)                               : 2 channels
Sampling rate                            : 44.1 kHz
Compression mode                         : Lossy
Stream size                              : 2.89 MiB (100%)
Writing library                          : LAME3.100
$ mediainfo monfichiermono.mp3
General
Complete name                            : monfichiermono.mp3
Format                                   : MPEG Audio
File size                                : 1.45 MiB
Overall bit rate mode                    : Variable
Writing library                          : Lavf58.29.100

Audio
Format                                   : MPEG Audio
Format version                           : Version 1
Format profile                           : Layer 3
Bit rate mode                            : Variable
Channel(s)                               : 1 channel
Sampling rate                            : 44.1 kHz
Compression mode                         : Lossy
Stream size                              : 1.45 MiB (100%)


J'obtiens bien un fichier mp3 mono dont la taille est approximativement la moitié de celle du fichier stéréo.


--------------------
Membre du club des AIPBP (Anciens Inscrits Pas Beaucoup de Posts) Voir la liste
Go to the top of the page
 
+Quote Post
papag4
posté 21 Sep 2019, 18:03
Message #5


Macbidouilleur de vermeil !
****

Groupe : Membres
Messages : 912
Inscrit : 25 Sep 2003
Lieu : Région Parisienne
Membre no 9 858



Ah donc tu pars de tes 2 fichiers WAV que tu convertis:
fichier mono 16Mo et tu obtiens 1,45Mo en MP3 1 canall
fichier stéréo 32Mo et tu obtiens 2,89Mo en MP3 2 canaux

Par contre moi je le fais en 128Kbps et toi en VBR non?

Par contre j'ai une vieille version de ffmpeg 0.009? et je n'obtiens rien?
Maintenant c'est la 4,21 mais je ne vois pas comment cela marche ou s'installe?

ronan huh.gif

PS: je cherche sur ffmpeg...

Ce message a été modifié par papag4 - 21 Sep 2019, 18:04.


--------------------
MacPro 2012 2x2,4-6 cores avec 32Go de RAM et 4DD: 500Go+3X 1To, en X.11.6 et MacBook Pro 13p fin2011
Go to the top of the page
 
+Quote Post

Reply to this topicStart new topic
1 utilisateur(s) sur ce sujet (1 invité(s) et 0 utilisateur(s) anonyme(s))
0 membre(s) :

 



Nous sommes le : 22nd October 2019 - 17:44