Version imprimable du sujet

Cliquez ici pour voir ce sujet dans son format original

Forums MacBidouille _ Son _ Taille fichier MP3 mono / stéréo

Écrit par : papag4 17 Sep 2019, 12:53

Bonjour,

je suis en train de convertir des fichiers de conférences en MP3.
Après le traitement sur Logic je fais un bounce en MP3.

Du coup, les conférences étant en mono, je passe la sortie principale en mono puis je bounce en MP3 en espérant gagner en taille de fichiers.

Et là, surprise le même extrait de 15mn converti en MP3 fait la même taille ( env 14,5 Mo ) que ce soit en stéréo ou mono ?

bref j'ai essayé plusieurs manips: bounce en PCM d'abord:

j'obtiens bien un fichier Wave de 158Mo en stéréo, ou 79Mo en mono, ou 2 fichiers de 79Mo si je choisis en stéréo séparé ( L et R).

Mais que je bounce en MP3 le fichier stéréo de 158Mo ou le fichier mono de 79Mo j'obtiens un fichier (1 canal) de 14,5 Mo ou un fichier (de 2 canaux) toujours de 14,5Mo....
J'ai essayé la conversion avec Audacity pour le même résultat.

je pensais que le MP3 mono aurait été divisé par 2 ?

Quelqu'un a t'il une explication ?

merci

ronan huh.gif

Écrit par : Ducace 18 Sep 2019, 09:32

Je crois que sur un mp3 mono, il reste deux canaux identiques, gauche et droit.
Donc ça ne change pas le poids.
C'est comme sur une vidéo de smartphone ou d'APN, le son entre en mono (il n'y a qu'un micro) mais pourrait entrer en stéréo si on branche un micro stéréo sur l'entrée son.
Au final il y a deux canaux, différents en enregistrement stéréo et identiques en enregistrement mono

Écrit par : papag4 20 Sep 2019, 09:33

Citation (papag4 @ 17 Sep 2019, 13:53) *
Bonjour,

Mais que je bounce en MP3 le fichier stéréo de 158Mo ou le fichier mono de 79Mo j'obtiens un fichier (1 canal) de 14,5 Mo ou un fichier (de 2 canaux) toujours de 14,5Mo....
J'ai essayé la conversion avec Audacity pour le même résultat.

ronan huh.gif


mais quand tu fais "infos" sur le fichier tu obtiens "canaux audio:1 " pour le mono et "canaux audio:2" pour le stéréo...

d'où mon interrogation ?

merci pour la réponse...

ronan

Écrit par : audionuma 20 Sep 2019, 13:22

Bonjour,
je ne reproduis pas ton problème chez moi (avec un workflow légèrement différent) :

- fichier monfichier.wav, environ 3 minutes, stéréo 16 bits 44100 Hz : taille environ 32 Mo

Je convertis le fichier en mono avec audacity (Pistes > Mix > Mix stéréo vers mono) et j'exporte.

- fichier monfichiermono.wav, environ 3 minutes, mono 16 bits 44100 Hz : taille environ 16 Mo

Je convertis en mp3 avec ffmpeg, réglages par défaut :

Code
$ ffmpeg -i monfichier.wav monfichier.mp3
$ ffmpeg -i monfichiermono.wav monfichiermono.mp3


Et j'observe le résultat :

Code
$mediainfo monfichier.mp3
General
Complete name                            : monfichier.mp3
Format                                   : MPEG Audio
File size                                : 2.89 MiB
Overall bit rate mode                    : Variable
Writing library                          : LAME3.100

Audio
Format                                   : MPEG Audio
Format version                           : Version 1
Format profile                           : Layer 3
Format settings                          : Joint stereo / MS Stereo
Bit rate mode                            : Variable
Channel(s)                               : 2 channels
Sampling rate                            : 44.1 kHz
Compression mode                         : Lossy
Stream size                              : 2.89 MiB (100%)
Writing library                          : LAME3.100
$ mediainfo monfichiermono.mp3
General
Complete name                            : monfichiermono.mp3
Format                                   : MPEG Audio
File size                                : 1.45 MiB
Overall bit rate mode                    : Variable
Writing library                          : Lavf58.29.100

Audio
Format                                   : MPEG Audio
Format version                           : Version 1
Format profile                           : Layer 3
Bit rate mode                            : Variable
Channel(s)                               : 1 channel
Sampling rate                            : 44.1 kHz
Compression mode                         : Lossy
Stream size                              : 1.45 MiB (100%)


J'obtiens bien un fichier mp3 mono dont la taille est approximativement la moitié de celle du fichier stéréo.

Écrit par : papag4 21 Sep 2019, 18:03

Ah donc tu pars de tes 2 fichiers WAV que tu convertis:
fichier mono 16Mo et tu obtiens 1,45Mo en MP3 1 canall
fichier stéréo 32Mo et tu obtiens 2,89Mo en MP3 2 canaux

Par contre moi je le fais en 128Kbps et toi en VBR non?

Par contre j'ai une vieille version de ffmpeg 0.009? et je n'obtiens rien?
Maintenant c'est la 4,21 mais je ne vois pas comment cela marche ou s'installe?

ronan huh.gif

PS: je cherche sur ffmpeg...

Propulsé par Invision Power Board (http://www.invisionboard.com)
© Invision Power Services (http://www.invisionpower.com)